Kahn appreciation


#122

i just don’t like the way it’s only available for 30 days…even if you download it, that’s my only beef tbf. If I download a mix I want to be able to listen to it for longer than 30 days.

and also, i don’t like being forced to use some other poorly optimized app on my phone that keeps restarting itself and consuming my resources…i have uninstalled all bbc apps (like iplayer, weather, bbc sport, etc) because of this


#123

kk I only used the browser version


#124

their Essential mix is #2,5 & 6 on the mixcloud dubstep chart haha


#125

Fresh dubpalte rip from the Kahn and Neek essential mix


#126

that is such a good track


#127

Wow this thread has been quiet for a while…from the recent gantz innamind podcast:

There’s another kahn beauty in that podcast too


#128

1:08:40

https://www.mixcloud.com/RadarRadioLDN/innamindblacklist-w-karma-gantz-6th-november-2017/

quality


#129

That bolier room sesh with dl instructrions :wink:

$ youtube-dl -f bestaudio https://www.youtube.com/watch?v=tKz2kAGZgkk
[youtube] tKz2kAGZgkk: Downloading webpage
[youtube] tKz2kAGZgkk: Downloading video info webpage
[youtube] tKz2kAGZgkk: Extracting video information
[youtube] tKz2kAGZgkk: Downloading MPD manifest
[download] Destination: Boiler Room x Budweiser Lima-tKz2kAGZgkk.webm
[download] 100% of 232.10MiB in 00:10
$ ffmpeg -i Boiler\ Room\ x\ Budweiser\ Lima-tKz2kAGZgkk.webm -acodec pcm_s16le -ar 44100 Boiler\ Room\ x\ Budweiser\ Lima-tKz2kAGZgkk.wav
ffmpeg version 3.4 Copyright © 2000-2017 the FFmpeg developers
built with Apple LLVM version 9.0.0 (clang-900.0.37)
configuration: --prefix=/usr/local/Cellar/ffmpeg/3.4 --enable-shared --enable-pthreads --enable-version3 --enable-hardcoded-tables --enable-avresample --cc=clang --host-cflags= --host-ldflags= --enable-gpl --enable-libmp3lame --enable-libx264 --enable-libxvid --enable-opencl --enable-videotoolbox --disable-lzma
libavutil 55. 78.100 / 55. 78.100
libavcodec 57.107.100 / 57.107.100
libavformat 57. 83.100 / 57. 83.100
libavdevice 57. 10.100 / 57. 10.100
libavfilter 6.107.100 / 6.107.100
libavresample 3. 7. 0 / 3. 7. 0
libswscale 4. 8.100 / 4. 8.100
libswresample 2. 9.100 / 2. 9.100
libpostproc 54. 7.100 / 54. 7.100
Input #0, matroska,webm, from ‘Boiler Room x Budweiser Lima-tKz2kAGZgkk.webm’:
Metadata:
encoder : google/video-file
Duration: 04:05:38.42, start: -0.007000, bitrate: 132 kb/s
Stream #0:0(eng): Audio: opus, 48000 Hz, stereo, fltp (default)
Stream mapping:
Stream #0:0 -> #0:0 (opus (native) -> pcm_s16le (native))
Press [q] to stop, [?] for help
Output #0, wav, to ‘Boiler Room x Budweiser Lima-tKz2kAGZgkk.wav’:
Metadata:
ISFT : Lavf57.83.100
Stream #0:0(eng): Audio: pcm_s16le ([1][0][0][0] / 0x0001), 44100 Hz, stereo, s16, 1411 kb/s (default)
Metadata:
encoder : Lavc57.107.100 pcm_s16le
size= 2538921kB time=04:05:38.40 bitrate=1411.2kbits/s speed= 204x
video:0kB audio:2538921kB subtitle:0kB other streams:0kB global headers:0kB muxing overhead: 0.000003%


#130


#131

Lol fucks sake saw it quick and had a fleeting rush of adrenaline


#132

tbh I’ve listened to this track so many times now that I’m almost at the point where I don’t enjoy it as much as I did in the past. Releases are way more exciting when they come out of nowhere, or when you only hear them in the dance from time to time


#133

Agree but can’t wait to mix with that one still


#134

Young echo album…


#135

this is pretty nice